+ training4doctors.co.uk
|- Recent Posts

10% Off Cashback Carnival

Recent Posts

Pages: 1 2 3 4 ... 10
3
Avengers Infinity War (2018) 720p BluRay Hindi DD 5.1CH - Eng DD 5.1CH ~ PyZ



Quote
====================================================
Avengers Infinity War (2018) 720p BluRay Hindi DD 5.1CH - Eng DD 5.1CH ~ PyZ
====================================================

-------------------------------------------------------------------
                            General Information                             
-------------------------------------------------------------------

Genre...................: Action, Adventure, Fantasy
iMDB....................:

iMDb Rating.............: 8.6/10
Release Date............: 27 April 2018 (INDIA, USA)
Tagline.................: Where will you be, when it all ends?


RELEASE iNFO
============
Release Name............: Avengers: Infinity War (2018)
File Size...............: 4.72 GB
Duration................: 02:29:21
Video Codec Type........: x264
Frame Rate(FPS).........: 23.976 (24000/1001) Fps
Overall bit rate........: 3 696 Kbps
Resolution..............: 1 280 x 536
Audio 1.................: AC3, Hindi, 5.1 channels, 640kbps, 48kHz
Audio 2.................: AC3, English, 5.1 channels, 384kbps, 48kHz
Subtitle................: English PGS normal
Chapters................: NA

:ss:

None On The Source

:download:

Quote


File Leeched & Uploaded From




Don't walk as you are king, walk as you don't care who the king is....!!
Never argue with an idiot. They drag you down to their level and then beat you with experience?
4
Android Applications / Re: Zee5 v11.2.147 Mod apk
« Last post by omkar10 on 1 hour ago »
I already requested one premium show from zee5 app i.e. 'liftman' but no ome is uploading it. Only for that purpose I need the mod
7
Link is not working. Shows 404 error message... Kindly check it.
10
Avengers  Infinity War (2018) Bluray 1080p 10Bit HEVC H265 Hindi DD5.1 - English DD5.1 - Esubs ~ Ranvijay







Quote
General
Format                                   : Matroska
Format version                           : Version 4 / Version 2
File size                                : 6.20 GiB
Duration                                 : 2 h 29 min
Overall bit rate                         : 5 945 kb/s
Movie name                               : Avengers  Infinity War (2018) Bluray 1080p 10Bit HEVC H265 Hindi DD5.1 - English DD5.1 - Esubs ~ Ranvijay

Video
ID                                       : 1
Format                                   : HEVC
Format/Info                              : High Efficiency Video Coding
Duration                                 : 2 h 29 min
Bit rate                                 : 4 835 kb/s
Width                                    : 1 920 pixels
Height                                   : 804 pixels
Display aspect ratio                     : 2.40:1
Frame rate mode                          : Constant
Frame rate                               : 23.976 (24000/1001) FPS
Color space                              : YUV
Chroma subsampling                       : 4:2:0
Bit depth                                : 10 bits
Bits/(Pixel*Frame)                       : 0.131
Stream size                              : 5.04 GiB (81%)
Title                                    : ~Ranvijay~

Audio #1
ID                                       : 2
Format                                   : AC-3
Format/Info                              : Audio Coding 3
Codec ID                                 : A_AC3
Duration                                 : 2 h 29 min
Bit rate mode                            : Constant
Bit rate                                 : 640 kb/s
Channel(s)                               : 6 channels
Channel positions                        : Front: L C R, Side: L R, LFE
Sampling rate                            : 48.0 kHz
Frame rate                               : 31.250 FPS (1536 SPF)
Bit depth                                : 16 bits
Compression mode                         : Lossy
Stream size                              : 684 MiB (11%)
Title                                    : ~Ranvijay~
Language                                 : Hindi
Service kind                             : Complete Main
Default                                  : Yes
Forced                                   : No

Audio #2
ID                                       : 3
Format                                   : AC-3
Format/Info                              : Audio Coding 3
Codec ID                                 : A_AC3
Duration                                 : 2 h 29 min
Bit rate mode                            : Constant
Bit rate                                 : 448 kb/s
Channel(s)                               : 6 channels
Channel positions                        : Front: L C R, Side: L R, LFE
Sampling rate                            : 48.0 kHz
Frame rate                               : 31.250 FPS (1536 SPF)
Bit depth                                : 16 bits
Compression mode                         : Lossy
Stream size                              : 479 MiB (8%)
Title                                    : ~Ranvijay~
Language                                 : English
Service kind                             : Complete Main
Default                                  : No
Forced                                   : No

Text #1
ID                                       : 4
Format                                   : VobSub
Muxing mode                              : zlib
Codec ID                                 : S_VOBSUB
Codec ID/Info                            : Picture based subtitle format used on DVDs
Duration                                 : 2 h 28 min
Bit rate                                 : 8 992 b/s
Count of elements                        : 2067
Stream size                              : 9.55 MiB (0%)
Language                                 : English
Default                                  : No
Forced                                   : No

Text #2
ID                                       : 5
Format                                   : VobSub
Muxing mode                              : zlib
Codec ID                                 : S_VOBSUB
Codec ID/Info                            : Picture based subtitle format used on DVDs
Duration                                 : 1 s 115 ms
Bit rate                                 : 23.2 kb/s
Count of elements                        : 1
Stream size                              : 3.15 KiB (0%)
Title                                    : Forced
Language                                 : English
Default                                  : No
Forced                                   : Yes

Text #3
ID                                       : 6
Format                                   : VobSub
Muxing mode                              : zlib
Codec ID                                 : S_VOBSUB
Codec ID/Info                            : Picture based subtitle format used on DVDs
Duration                                 : 2 h 29 min
Bit rate                                 : 21.1 kb/s
Count of elements                        : 3019
Stream size                              : 22.5 MiB (0%)
Title                                    : Commentary
Language                                 : English
Default                                  : No
Forced                                   : No

Menu
00:00:00.000                             : en:Chapter 01
00:11:28.729                             : en:Chapter 02
00:18:13.884                             : en:Chapter 03
00:27:23.808                             : en:Chapter 04
00:35:48.813                             : en:Chapter 05
00:42:23.541                             : en:Chapter 06
00:54:12.874                             : en:Chapter 07
00:59:36.739                             : en:Chapter 08
01:05:07.153                             : en:Chapter 09
01:10:53.666                             : en:Chapter 10
01:17:06.955                             : en:Chapter 11
01:24:14.758                             : en:Chapter 12
01:31:08.004                             : en:Chapter 13
01:42:00.405                             : en:Chapter 14
01:45:57.809                             : en:Chapter 15
01:53:04.068                             : en:Chapter 16
01:58:52.917                             : en:Chapter 17
02:03:58.180                             : en:Chapter 18
02:11:13.282                             : en:Chapter 19
02:17:31.284                             : en:Chapter 20

:download:

Quote


File Leeched & Uploaded From




Don't walk as you are king, walk as you don't care who the king is....!!
Never argue with an idiot. They drag you down to their level and then beat you with experience?
Pages: 1 2 3 4 ... 10


Back to top