+ training4doctors.co.uk »  :::: Dubbed Zone (Dubbed English in Hindi) » English Movies Dubbed in Hindi
|- Elizabeth.1998.BluRay.720p.x264.{Dual.Audio}.[Hindi Org-English].-.Hon3yHD

Mobile Recharge Offer 20% Off

Elizabeth.1998.BluRay.720p.x264.{Dual.Audio}.[Hindi Org-English].-.Hon3yHD

0 Members and 1 Guest are viewing this topic.

August 17, 2018, 02:11:49 PM
  • Elite Forces
  • ****
  • Topic Author
  • Thank You: 1239
  • Reputation: 499
  • Activity:
    100%
  • Country: pk
  • Posts: 1438
  • Topics: 757
  • Join Date: Mar 2015
  • ShareSpark Member
Elizabeth.1998.BluRay.720p.x264.{Dual.Audio}.[Hindi Org-English].-.Hon3yHD









Format : Matroska
Format version : Version 4 / Version 2
File size : 1.32 GiB
Duration : 2 h 3 min
Overall bit rate : 1 530 kb/s

Video
ID : 1
Format : AVC
Format/Info : Advanced Video Codec
Format profile : [email protected]
Format settings : CABAC / 8 Ref Frames
Format settings, CABAC : Yes
Format settings, ReFrames : 8 frames
Codec ID : V_MPEG4/ISO/AVC
Duration : 2 h 3 min
Bit rate : 1 200 kb/s
Width : 1 280 pixels
Height : 692 pixels
Display aspect ratio : 1.85:1
Frame rate mode : Constant
Frame rate : 23.976 (24000/1001) FPS

Audio #1
ID : 2
Format : AAC
Format/Info : Advanced Audio Codec
Format profile : LC
Codec ID : A_AAC-2
Duration : 2 h 3 min
Bit rate : 160 kb/s
Channel(s) : 2 channels
Channel positions : Front: L R
Sampling rate : 48.0 kHz
Frame rate : 46.875 FPS (1024 SPF)
Compression mode : Lossy
Delay relative to video : 1 s 79 ms
Stream size : 141 MiB (10%)
Title : Stereo
Language : Hindi

Audio #2
ID : 3
Format : AAC
Format/Info : Advanced Audio Codec
Format profile : LC
Codec ID : A_AAC-2
Duration : 2 h 3 min
Bit rate : 160 kb/s
Channel(s) : 2 channels
Channel positions : Front: L R
Sampling rate : 48.0 kHz
Stream size : 141 MiB (10%)
Title : Stereo
Language : English




 :ss:










 :download:





















Share this topic on FacebookShare this topic on GoogleShare this topic on MySpaceShare this topic on TwitterShare this topic on Yahoo



Thanks given by:


Tags:
 

Related Topics




Back to top